Forrest Gump 1994 1080p Bluray x265 10Bit AAC 5.1 - GetSchwifty

  • Category Movies
  • Type HEVC/x265
  • Language English
  • Total size 4.6 GB
  • Uploaded By GetSchwifty
  • Downloads 466
  • Last checked 4 days ago
  • Date uploaded 1 week ago
  • Seeders 17
  • Leechers 7

Forrest Gump

ComedyDramaRomance

A man with a low IQ has accomplished great things in his life and been present during significant historic events - in each case, far exceeding what anyone imagined he could do. Yet, despite all the things he has attained, his one true love eludes him. 'Forrest Gump' is the story of a man who rose above his challenges, and who proved that determination, courage, and love are more important than ability.

Infohash : 1734657583447D2293313E43FD597300336B3D8A

Source File:

Forrest Gump 1994 Sapphire Series 1080p BluRay REMUX AVC DTS-HD MA 5.1 - Kanibus [PrivateHD]






Media Information:


Code:

General
Unique ID : 214928123674374973874592162094288125107 (0xA1B1A6A33002614EB4515162F706BCB3)
Complete name : G:\Seeding\Forrest Gump 1994 1080p Bluray x265 10Bit AAC 5.1 - GetSchwifty\Forrest Gump 1994 1080p Bluray x265 10Bit AAC 5.1 - GetSchwifty.mkv
Format : Matroska
Format version : Version 4 / Version 2
File size : 4.61 GiB
Duration : 2 h 22 min
Overall bit rate : 4 645 kb/s
Movie name : Forrest Gump
Encoded date : UTC 2018-01-08 19:10:20
Writing application : mkvmerge v14.0.0 ('Flow') 64bit
Writing library : libebml v1.3.4 + libmatroska v1.4.5

Video
ID : 1
Format : HEVC
Format/Info : High Efficiency Video Coding
Format profile : Main [email protected]@Main
Codec ID : V_MPEGH/ISO/HEVC
Duration : 2 h 22 min
Bit rate : 4 350 kb/s
Width : 1 920 pixels
Height : 816 pixels
Display aspect ratio : 2.35:1
Frame rate mode : Constant
Frame rate : 23.976 (24000/1001) FPS
Color space : YUV
Chroma subsampling : 4:2:0
Bit depth : 10 bits
Bits/(Pixel*Frame) : 0.116
Stream size : 4.32 GiB (94%)
Writing library : x265 2.6+22-ff02513b92c0:[Windows][GCC 6.3.0][64 bit] 10bit
Encoding settings : cpuid=1050111 / frame-threads=3 / numa-pools=8 / wpp / no-pmode / no-pme / no-psnr / no-ssim / log-level=2 / input-csp=1 / input-res=1920x816 / interlace=0 / total-frames=204501 / level-idc=0 / high-tier=1 / uhd-bd=0 / ref=5 / no-allow-non-conformance / no-repeat-headers / annexb / no-aud / no-hrd / info / hash=0 / no-temporal-layers / open-gop / min-keyint=23 / keyint=250 / gop-lookahead=0 / bframes=8 / b-adapt=2 / b-pyramid / bframe-bias=0 / rc-lookahead=80 / lookahead-slices=5 / scenecut=40 / radl=0 / no-intra-refresh / ctu=64 / min-cu-size=8 / no-rect / no-amp / max-tu-size=32 / tu-inter-depth=1 / tu-intra-depth=1 / limit-tu=0 / rdoq-level=0 / dynamic-rd=0.00 / no-ssim-rd / signhide / no-tskip / nr-intra=0 / nr-inter=0 / no-constrained-intra / strong-intra-smoothing / max-merge=3 / limit-refs=3 / limit-modes / me=3 / subme=5 / merange=57 / temporal-mvp / weightp / weightb / no-analyze-src-pics / deblock=0:0 / sao / no-sao-non-deblock / rd=3 / no-early-skip / rskip / no-fast-intra / no-tskip-fast / no-cu-lossless / no-b-intra / no-splitrd-skip / rdpenalty=0 / psy-rd=0.30 / psy-rdoq=0.00 / no-rd-refine / no-lossless / cbqpoffs=0 / crqpoffs=0 / rc=abr / bitrate=4350 / qcomp=0.60 / qpstep=4 / stats-write=0 / stats-read=2 / cplxblur=20.0 / qblur=0.5 / ipratio=1.40 / pbratio=1.30 / aq-mode=3 / aq-strength=1.00 / cutree / zone-count=0 / no-strict-cbr / qg-size=32 / no-rc-grain / qpmax=69 / qpmin=0 / no-const-vbv / sar=0 / overscan=0 / videoformat=5 / range=0 / colorprim=2 / transfer=2 / colormatrix=2 / chromaloc=0 / display-window=0 / max-cll=0,0 / min-luma=0 / max-luma=1023 / log2-max-poc-lsb=8 / vui-timing-info / vui-hrd-info / slices=1 / no-opt-qp-pps / no-opt-ref-list-length-pps / no-multi-pass-opt-rps / scenecut-bias=0.05 / no-opt-cu-delta-qp / aq-motion / no-hdr / no-hdr-opt / no-dhdr10-opt / analysis-save=(null) / analysis-load=(null) / analysis-reuse-level=5 / scale-factor=0 / refine-intra=0 / refine-inter=0 / refine-mv=0 / no-limit-sao / ctu-info=0 / no-lowpass-dct / refine-mv-type=0 / copy-pic=1
Default : Yes
Forced : No

Audio
ID : 2
Format : AAC
Format/Info : Advanced Audio Codec
Format profile : LC
Codec ID : A_AAC
Duration : 2 h 22 min
Bit rate : 256 kb/s
Channel(s) : 6 channels
Channel positions : Front: L C R, Side: L R, LFE
Sampling rate : 48.0 kHz
Frame rate : 46.875 FPS (1024 SPF)
Compression mode : Lossy
Delay relative to video : 9 ms
Stream size : 260 MiB (6%)
Title : English AAC VBR 5.1
Language : English
Default : Yes
Forced : No

Text #1
ID : 3
Format : PGS
Muxing mode : zlib
Codec ID : S_HDMV/PGS
Codec ID/Info : Picture based subtitle format used on BDs/HD-DVDs
Duration : 2 h 10 min
Bit rate : 39.0 kb/s
Count of elements : 3084
Stream size : 36.5 MiB (1%)
Language : English
Default : No
Forced : No

Text #2
ID : 4
Format : PGS
Muxing mode : zlib
Codec ID : S_HDMV/PGS
Codec ID/Info : Picture based subtitle format used on BDs/HD-DVDs
Duration : 2 h 10 min
Bit rate : 33.9 kb/s
Count of elements : 2512
Stream size : 31.7 MiB (1%)
Language : French
Default : No
Forced : No

Text #3
ID : 5
Format : PGS
Muxing mode : zlib
Codec ID : S_HDMV/PGS
Codec ID/Info : Picture based subtitle format used on BDs/HD-DVDs
Duration : 2 h 10 min
Bit rate : 31.3 kb/s
Count of elements : 2518
Stream size : 29.2 MiB (1%)
Language : Spanish
Default : No
Forced : No

Text #4
ID : 6
Format : PGS
Muxing mode : zlib
Codec ID : S_HDMV/PGS
Codec ID/Info : Picture based subtitle format used on BDs/HD-DVDs
Duration : 2 h 13 min
Bit rate : 31.8 kb/s
Count of elements : 2408
Stream size : 30.3 MiB (1%)
Language : Portuguese
Default : No
Forced : No

Menu
00:00:00.000 : en:I'm Forrest...Forrest Gump
00:06:43.569 : en:Mama
00:12:24.577 : en:Like Peas and Carrots
00:19:56.945 : en:Run Forrest Run!
00:31:13.705 : en:Private Gump
00:40:40.187 : en:Lieutenant Dan
00:44:18.113 : en:My Best Good Friend
00:56:34.474 : en:Wounded in the Buttocks
01:03:32.266 : en:You're My Girl
01:13:34.076 : en:National Celebrity
01:17:02.826 : en:Happy New Year
01:23:52.277 : en:Shrimp Boat Captain
01:34:59.944 : en:Bubba Gump
01:38:55.596 : en:Mamma's Trip to Heaven
01:43:52.893 : en:Jenny Comes Home
01:51:28.306 : en:A Little Run
01:58:54.710 : en:Forrest Meets Forrest
02:04:48.564 : en:Beloved Mother, Wife and Friend
02:15:25.200 : en:End Credits

Files:

  • Forrest Gump 1994 1080p Bluray x265 10Bit AAC 5.1 - GetSchwifty.mkv (4.6 GB)

Comments

Code:

  • udp://tracker.coppersurfer.tk:6969/announce
  • udp://tracker.opentrackr.org:1337/announce
  • udp://tracker.torrent.eu.org:451/announce
  • http://tracker.tfile.me:80/announce
  • http://t.nyaatracker.com:80/announce
  • http://retracker.mgts.by:80/announce
  • http://tracker.yoshi210.com:6969/announce