Nicky, Ricky, Dicky & Dawn S04E02 Wrestle-Mae-nia 1080p WEB-DL AA...

  • Category TV
  • Type HD
  • Language English
  • Total size 860.9 MB
  • Uploaded By LazyRips
  • Downloads 3
  • Last checked 37 minutes ago
  • Date uploaded 3 days ago
  • Seeders 0
  • Leechers 0

Infohash : 1E7CB366C510D0A71F9251F53F2D875C54027412

Nicky, Ricky, Dicky & Dawn:

Video
ID : 2
Format : AVC
Format/Info : Advanced Video Codec
Format profile : [email protected]
Format settings, CABAC : Yes
Format settings, RefFrames : 4 frames
Codec ID : V_MPEG4/ISO/AVC
Duration : 22 min 42 s
Bit rate : 5 173 kb/s
Width : 1 916 pixels
Height : 1 076 pixels
Display aspect ratio : 16:9
Frame rate mode : Constant
Frame rate : 23.976 (24000/1001) FPS
Color space : YUV
Chroma subsampling : 4:2:0
Bit depth : 8 bits
Scan type : Progressive
Bits/(Pixel*Frame) : 0.105
Stream size : 840 MiB (98%)
Language : English
Default : Yes
Forced : No
Color range : Limited
Color primaries : BT.709
Transfer characteristics : BT.709
Matrix coefficients : BT.709

Audio
ID : 1
Format : AAC
Format/Info : Advanced Audio Codec
Format profile : LC
Codec ID : A_AAC
Duration : 22 min 42 s
Bit rate : 125 kb/s
Channel(s) : 2 channels
Channel positions : Front: L R
Sampling rate : 48.0 kHz
Frame rate : 46.875 FPS (1024 SPF)
Compression mode : Lossy
Delay relative to video : -42 ms
Stream size : 20.4 MiB (2%)
Language : English
Default : Yes
Forced : No

Text
ID : 3
Format : UTF-8
Codec ID : S_TEXT/UTF8
Codec ID/Info : UTF-8 Plain Text
Duration : 22 min 1 s
Bit rate : 133 b/s
Count of elements : 516
Stream size : 21.6 KiB (0%)
Language : English
Default : Yes
Forced : No

Screenshots:

Files:

  • Nicky.Ricky.Dicky.and.Dawn.S04E02.Wrestle-Mae-nia.1080p.WEB-DL.AAC2.0.H.264-LAZY.mkv (860.9 MB)

There are currently no comments. Feel free to leave one :)

Code:

  • udp://tracker.opentrackr.org:1337/announce
  • udp://tracker.coppersurfer.tk:6969/announce
  • udp://9.rarbg.me:2730/announce
  • http://glotorrents.pw:80/announce
  • udp://tracker.istole.it:80/announce
  • udp://tracker4.piratux.com:6969/announce
  • udp://tracker.publicbt.com:80/announce
  • udp://coppersurfer.tk:6969/announce
  • udp://open.demonii.com:1337/announce
  • udp://tracker.openbittorrent.com:80/announce