bob dylan
black panther

The Cage Fighter 2018 Movies HDRip x264 5.1 ESubs with Sample ☻rD...

  • Category Movies
  • Type HD
  • Language English
  • Total size 798.8 MB
  • Uploaded By nehalpuja
  • Downloads 385
  • Last checked 5 days ago
  • Date uploaded 6 days ago
  • Seeders 71
  • Leechers 33

Infohash : EDC4B7CFE85F529241B44EEE1855AD407BB39D70

The Cage Fighter 2018 Movies HDRip x264 5.1 ESubs with Sample ☻rDX☻
===============================================================================================

SCREEN SHOTS:



or

http://postimage.co.nr/2018/2/court/1.html

File size : 790 MiB
Duration : 1 h 20 min
Overall bit rate : 1 365 kb/s
Movie name : The Cage Fighter 2018 Movies HDRip x264 5.1 ESubs ☻rDX☻

Video
ID : 2
Format : AVC
Format/Info : Advanced Video Codec
Format profile : [email protected]
Format settings, CABAC : Yes
Format settings, ReFrames : 4 frames
Codec ID : V_MPEG4/ISO/AVC
Duration : 1 h 20 min
Bit rate : 698 kb/s
Width : 720 pixels
Height : 300 pixels
Display aspect ratio : 2.40:1
Original display aspect ratio : 2.40:1
Frame rate mode : Constant
Frame rate : 23.976 (24000/1001) FPS
Color space : YUV
Chroma subsampling : 4:2:0
Bit depth : 8 bits
Scan type : Progressive
Bits/(Pixel*Frame) : 0.135
Stream size : 404 MiB (51%)
Title : ☻rDX☻
Writing library : x264

Audio
ID : 1
Format : E-AC-3
Format/Info : Enhanced Audio Coding 3
Format settings, Endianness : Big
Codec ID : A_EAC3
Duration : 1 h 20 min
Bit rate mode : Constant
Bit rate : 640 kb/s
Channel(s) : 6 channels
Channel positions : Front: L C R, Side: L R, LFE
Sampling rate : 48.0 kHz
Frame rate : 187.500 FPS (256 spf)
Compression mode : Lossy
Delay relative to video : -21 ms
Stream size : 370 MiB (47%)
Title : ☻rDX☻
Language : English
Default : Yes
Forced : No

Text
ID : 3
Format : ASS
Codec ID : S_TEXT/ASS
Codec ID/Info : Advanced Sub Station Alpha
Compression mode : Lossless
Title : ☻rDX☻
Language : English
Default : Yes
Forced : No



IMDB : http://www.imdb.com/title/tt6436888

Files:

The Cage Fighter 2018 Movies HDRip x264 5.1 ESubs with Sample ☻rDX☻
  • Sample ~ The Cage Fighter 2018 Movies HDRip x264 5.1 ESubs ☻rDX☻.mkv (9.0 MB)
  • The Cage Fighter 2018 Movies HDRip x264 5.1 ESubs ☻rDX☻.mkv (789.8 MB)

There are currently no comments. Feel free to leave one :)

Code:

  • udp://tracker.coppersurfer.tk:6969/announce
  • udp://tracker.openbittorrent.com:80/announce
  • udp://glotorrents.pw:6969/announce
  • udp://tracker.publicbt.com:80/announce
  • http://retracker.krs-ix.ru/announce
  • udp://tracker.pomf.se:80/announce
  • udp://explodie.org:6969/announce
  • http://mgtracker.org:2710/announce
  • http://tracker.aletorrenty.pl:2710/announce
  • http://tracker.btcake.com/announce
  • udp://tracker.openbittorrent.com:80/announce
  • udp://tracker.leechers-paradise.org:6969/announce
  • udp://coppersurfer.tk:6969/announce